شبكة مصارعة العرب || Wwe Arab
اهلا بك زائرنا هنا في هذا المنتدي اي شيء تريده موجود العرض القادم التغطية و النتائج و كل شيء ستكون في المنتدي و العرض سابق ايضا كل شيء تريده موجود في هذا المنتدي لعام 2012 فقط ارجو انت تسجل
شبكة مصارعة العرب || Wwe Arab
اهلا بك زائرنا هنا في هذا المنتدي اي شيء تريده موجود العرض القادم التغطية و النتائج و كل شيء ستكون في المنتدي و العرض سابق ايضا كل شيء تريده موجود في هذا المنتدي لعام 2012 فقط ارجو انت تسجل
شبكة مصارعة العرب || Wwe Arab
هل تريد التفاعل مع هذه المساهمة؟ كل ما عليك هو إنشاء حساب جديد ببضع خطوات أو تسجيل الدخول للمتابعة.

شبكة مصارعة العرب || Wwe Arab

لعشاق المصارعة الحرة
 
الرئيسيةالرئيسية  مجلة المنتديمجلة المنتدي  التسجيلالتسجيل  دخولدخول  

 

 حصريآ :- تحميل | Euro 2012 Final : Spain v. Italy 1/7/2012 | بنسخةة :- | DVB-S‏ ‏| وبحجم :- | 800MB‏ ‏| نسخةة :- | HD 720p‏ | بحجم :- | 4.2 GiB‏ |

اذهب الى الأسفل 
كاتب الموضوعرسالة
Cm Punk
صاحب الموقع
صاحب الموقع
Cm Punk

المهنة : المصارعة
الدول : مصر
عدد المساهمات : 1834
نقاط العضو : 2727098
السٌّمعَة والتقييم : 7
تاريخ التسجيل : 27/08/2011
العمر : 38

حصريآ :- تحميل | Euro 2012 Final : Spain v. Italy 1/7/2012 | بنسخةة :- | DVB-S‏ ‏| وبحجم :- | 800MB‏ ‏| نسخةة :- | HD 720p‏ | بحجم :- | 4.2 GiB‏ | Empty
مُساهمةموضوع: حصريآ :- تحميل | Euro 2012 Final : Spain v. Italy 1/7/2012 | بنسخةة :- | DVB-S‏ ‏| وبحجم :- | 800MB‏ ‏| نسخةة :- | HD 720p‏ | بحجم :- | 4.2 GiB‏ |   حصريآ :- تحميل | Euro 2012 Final : Spain v. Italy 1/7/2012 | بنسخةة :- | DVB-S‏ ‏| وبحجم :- | 800MB‏ ‏| نسخةة :- | HD 720p‏ | بحجم :- | 4.2 GiB‏ | Emptyالإثنين يوليو 02, 2012 12:13 pm

حصريآ :- تحميل | Euro 2012 Final :
Spain v. Italy 1/7/2012 | بنسخةة :- | DVB-S‏ ‏| وبحجم :- | 800MB‏ ‏|
نسخةة :- | HD 720p‏ | بحجم :- | 4.2 GiB‏ |بآسمي وآسم آلشبكةة

حصريآ :- تحميل | Euro 2012 Final : Spain v. Italy 1/7/2012 | بنسخةة :- | DVB-S‏ ‏| وبحجم :- | 800MB‏ ‏| نسخةة :- | HD 720p‏ | بحجم :- | 4.2 GiB‏ | Download

حصريآ :- تحميل | Euro 2012 Final : Spain v. Italy 1/7/2012 | بنسخةة :- | DVB-S‏ ‏| وبحجم :- | 800MB‏ ‏| نسخةة :- | HD 720p‏ | بحجم :- | 4.2 GiB‏ | Tumblr_m6f7sdbIvF1qf4wuoo1_500




SOURCE: DVB-S ~ FORMAT: XViD ~
AUDIO: MP3 128Kbps ~ VIDEO: 640×368 – 1000Kbps
SIZE: 800MB





حصريآ :- تحميل | Euro 2012 Final : Spain v. Italy 1/7/2012 | بنسخةة :- | DVB-S‏ ‏| وبحجم :- | 800MB‏ ‏| نسخةة :- | HD 720p‏ | بحجم :- | 4.2 GiB‏ | Firsthalfspainvitalyeur
حصريآ :- تحميل | Euro 2012 Final : Spain v. Italy 1/7/2012 | بنسخةة :- | DVB-S‏ ‏| وبحجم :- | 800MB‏ ‏| نسخةة :- | HD 720p‏ | بحجم :- | 4.2 GiB‏ | Firsthalfeurofinal01071
حصريآ :- تحميل | Euro 2012 Final : Spain v. Italy 1/7/2012 | بنسخةة :- | DVB-S‏ ‏| وبحجم :- | 800MB‏ ‏| نسخةة :- | HD 720p‏ | بحجم :- | 4.2 GiB‏ | Firsthalfeurofinal01071





FIRST HALF
WWEARAB.COM.Taker HDFirst_H…avi (368,27 MB) - uploaded.to

SECOND HALF
WWEARAB.COM.Taker HDSecond_…avi (375,75 MB) - uploaded.to




نسخة
HD 72Op


Format : Matroska
Format version : Version 2
Duration : 46mn 16s
Overall bit rate mode : Variable
Overall bit rate : 6 387 Kbps
Video
ID : 1
Format : AVC
Format/Info : Advanced Video Codec
Format profile : Main@L4.0
Format settings, CABAC : Yes
Format settings, ReFrames : 4 frames
Format settings, GOP : M=4, N=32
Codec ID : V_MPEG4/ISO/AVC
Duration : 46mn 16s
Bit rate mode : Variable
Bit rate : 5 876 Kbps
Maximum bit rate : 20.0 Mbps
Width : 1 280 pixels
Height : 720 pixels
Display aspect ratio : 16:9
Frame rate : 50.000 fps
Chroma subsampling : 4:2:0
Bit depth : 8 bits
Scan type : Progressive
Bits/(Pixel*Frame) : 0.128
Stream size : 1.90 GiB (92%)
Audio
ID : 2
Format : AC-3
Codec ID : A_AC3
Duration : 46mn 16s
Bit rate mode : Constant
Bit rate : 384 Kbps
Channel(s) : 2 channels
Channel positions : Front: L R
Sampling rate : 48.0 KHz
Bit depth : 16 bits
Compression mode : Lossy
Delay relative to video : 4ms
Stream size : 127 MiB (6%)
File size : 4.2 GiB





حصريآ :- تحميل | Euro 2012 Final : Spain v. Italy 1/7/2012 | بنسخةة :- | DVB-S‏ ‏| وبحجم :- | 800MB‏ ‏| نسخةة :- | HD 720p‏ | بحجم :- | 4.2 GiB‏ | 0701201554trthdtssnapsh
حصريآ :- تحميل | Euro 2012 Final : Spain v. Italy 1/7/2012 | بنسخةة :- | DVB-S‏ ‏| وبحجم :- | 800MB‏ ‏| نسخةة :- | HD 720p‏ | بحجم :- | 4.2 GiB‏ | 0701201554trthdtssnapsh
حصريآ :- تحميل | Euro 2012 Final : Spain v. Italy 1/7/2012 | بنسخةة :- | DVB-S‏ ‏| وبحجم :- | 800MB‏ ‏| نسخةة :- | HD 720p‏ | بحجم :- | 4.2 GiB‏ | 0701201554trthdtssnapsh





FIRST HALF
WWEARAB.COM.Taker HD.Spain_…rar (750,00 MB) - uploaded.to
WWEARAB.COM.Taker HD.Spain_…rar (750,00 MB) - uploaded.to
WWEARAB.COM.Taker HD.Spain_…rar (615,72 MB) - uploaded.to

SECOND HALF
WWEARAB.COM.Taker HD.Spain_…rar (800,00 MB) - uploaded.to
WWEARAB.COM.Taker HD.Spain_…rar (800,00 MB) - uploaded.to
WWEARAB.COM.Taker HD.Spain_…rar (606,06 MB) - uploaded.to

ــــــــــــــ التوقيع ــــــــــــــــ
حصريآ :- تحميل | Euro 2012 Final : Spain v. Italy 1/7/2012 | بنسخةة :- | DVB-S‏ ‏| وبحجم :- | 800MB‏ ‏| نسخةة :- | HD 720p‏ | بحجم :- | 4.2 GiB‏ | 34547_1562125336588_1338960900_31559418_3270490_n

Cm Punk

حصريآ :- تحميل | Euro 2012 Final : Spain v. Italy 1/7/2012 | بنسخةة :- | DVB-S‏ ‏| وبحجم :- | 800MB‏ ‏| نسخةة :- | HD 720p‏ | بحجم :- | 4.2 GiB‏ | Cm_punk_signature___wizard_by_th3epic1-d45nhhy
الرجوع الى أعلى الصفحة اذهب الى الأسفل
https://wwekings13.alafdal.net
 
حصريآ :- تحميل | Euro 2012 Final : Spain v. Italy 1/7/2012 | بنسخةة :- | DVB-S‏ ‏| وبحجم :- | 800MB‏ ‏| نسخةة :- | HD 720p‏ | بحجم :- | 4.2 GiB‏ |
الرجوع الى أعلى الصفحة 
صفحة 1 من اصل 1

صلاحيات هذا المنتدى:لاتستطيع الرد على المواضيع في هذا المنتدى
شبكة مصارعة العرب || Wwe Arab :: الاقسام الرياضية :: الكرة العالمية-
انتقل الى: